Visualizzare 4k da PC a TV

Sistema:
CPU i5 3570K  
Scheda video XFX R7 240 4k
Lettore POTPLAYER
TV: Samsung F6800 (l'ingresso HDMI viede riconosciuto 60P)



Questi i dati del file da visualizzare ottenuto dalla conversione di un file SD in 4k con Ulead video studio X7

Questo l'impegno della CPU e GPU durante la visione del file


Infine i dati di POTPLAYER durante la visualizzazione


General
ID                             : 0 (0x0)
Complete name                  : F:\mercenari 65.m2t
Format                         : BDAV
Format/Info                    : Blu-ray Video
File size                      : 446 MiB
Duration                       : 3mn 56s
Overall bit rate mode          : Variable
Overall bit rate               : 15.8 Mbps
Maximum Overall bit rate       : 48.0 Mbps

Video
ID                             : 4113 (0x1011)
Menu ID                        : 1 (0x1)
Format                         : AVC
Format/Info                    : Advanced Video Codec
Format profile                 : High@L5.2
Format settings, CABAC         : Yes
Format settings, ReFrames      : 2 frames
Codec ID                       : 27
Duration                       : 1mn 0s
Bit rate mode                  : Variable
Bit rate                       : 14.9 Mbps
Maximum bit rate               : 65.0 Mbps
Width                          : 4 096 pixels
Height                         : 2 160 pixels
Display aspect ratio           : 16:9
Frame rate                     : 50.000 fps
Standard                       : PAL
Color space                    : YUV
Chroma subsampling             : 4:2:0
Bit depth                      : 8 bits
Scan type                      : Progressive
Bits/(Pixel*Frame)             : 0.034
Stream size                    : 107 MiB (24%)
Color primaries                : BT.709
Transfer characteristics       : BT.709
Matrix coefficients            : BT.709

Audio
ID                             : 4352 (0x1100)
Menu ID                        : 1 (0x1)
Format                         : AC-3
Format/Info                    : Audio Coding 3
Mode extension                 : CM (complete main)
Format settings, Endianness    : Big
Codec ID                       : 129
Duration                       : 1mn 0s
Bit rate mode                  : Constant
Bit rate                       : 256 Kbps
Channel(s)                     : 2 channels
Channel positions              : Front: L R
Sampling rate                  : 48.0 KHz
Bit depth                      : 16 bits
Compression mode               : Lossy
Stream size                    : 1.83 MiB (0%)


Post più popolari

Elenco blog consigliati

Contattami

Nome

Email *

Messaggio *

Follow by Email